#TITLE:Whine Up;
#SUBTITLE:[Remix];
#ARTIST:Kat DeLuna Feat. Elephant Man;
#TITLETRANSLIT:;
#SUBTITLETRANSLIT:;
#ARTISTTRANSLIT:;
#CREDIT:;
#BANNER:;
#BACKGROUND:;
#LYRICSPATH:;
#CDTITLE:;
#MUSIC:Whine Up [Remix].ogg;
#OFFSET:-0.580;
#SAMPLESTART:18.000;
#SAMPLELENGTH:13.000;
#SELECTABLE:YES;
#BPMS:0.000=62.510,8.000=125.020,38.000=250.040,40.000=125.020,103.000=62.510,103.250=125.020,103.500=250.040,104.000=125.020,136.000=62.510,144.000=125.020,158.500=250.040,160.000=125.020,174.000=62.510,174.250=125.020,174.500=250.040,175.000=125.020;
#STOPS:38.000=0.030
,38.125=0.030
,38.250=0.030
,38.375=0.030
,38.500=0.030
,38.625=0.030
,38.750=0.060
,39.000=0.030
,39.125=0.030
,39.250=0.030
,39.375=0.030
,39.500=0.060
,39.750=0.060
,158.500=0.030
,158.625=0.030
,158.750=0.030
,158.875=0.030
,159.000=0.030
,159.125=0.030
,159.250=0.030
,159.375=0.030
,159.500=0.060
,159.750=0.060
;
#BGCHANGES:;
// cache tags:
#FIRSTBEAT:8.000;
#LASTBEAT:257.125;
#SONGFILENAME:Songs/nhac/Whine Up [Remix]/Whine Up [Remix].sm;
#HASMUSIC:1;
#HASBANNER:0;
#MUSICLENGTH:105.000;
// end cache tags

//---------------dance-single - retard_gamer----------------
#NOTES:
     dance-single:
     retard_gamer:
     Challenge:
     10:
     0.829,1.000,0.486,0.629,0.533,492.000,51.000,66.000,159.000,7.000:

0000
0000
0000
0000
,
0000
0000
0000
0000
,
1MM1
0000
0000
1000
0100
0000
1000
0000
1010
0000
0000
0100
0001
0000
0010
0000
,
M11M
0000
0000
0100
1000
0000
0001
0000
0000
0000
2002
0000
0000
0000
0000
3003
,
1M1M
0000
0000
0100
0001
0000
1000
0000
1100
0000
0000
0010
0001
0000
1000
0000
,
M1M1
0000
0000
0010
1000
0000
0001
0000
0000
0000
1200
0000
M010
0000
0310
0000
,
0001
1000
0010
0100
1000
0100
0001
1000
,
0100
0010
0001
0100
1M2M
0000
0001
0130
,
0001
1000
0100
0001
1000
0010
0001
0100
,
1000
0000
0001
0000
0010
0000
1000
0000
1MM2
0000
0000
0103
0010
0000
1000
0100
,
1000
0010
0001
0010
0100
0001
0010
0100
,
0001
1000
0010
0001
020M
M000
0010
1000
,
0310
0000
1000
0000
0001
0000
0010
0000
0200
0000
0000
2300
0M00
0000
0000
0000
,
3100
0010
0001
0100
20M2
0000
0M10
3003
,
200M
0000
00M2
0000
0M10
0000
3003
1000
,
0100
0000
1000
0010
1000
0000
0010
0000
0202
0000
0000
0000
0000
0000
0303
0000
,
0M02
0000
M200
0000
10M0
0000
0303
0101
,
1010
0000
1000
0001
1000
0000
0001
0000
0011
0000
0000
0000
0010
0000
0100
0000
,
1MMM
0010
0001
1000
0100
0001
1000
0100
,
1MMM
0010
0001
1000
0100
0001
1000
0001
,
2001
000M
0M1M
0000
02M0
0000
3000
M010
,
00M2
0300
2M00
0003
002M
3000
M130
1000
,
MMM1
0100
1000
0001
0010
1000
0001
0010
,
MMM1
0100
1000
0001
0010
1000
0100
0010
,
1002
0000
0000
0000
M000
0000
0000
0000
M1M0
0000
0000
0000
0000
0000
0000
0000
0203
0000
0000
0000
001M
0000
0000
0000
1000
0000
0000
0000
0010
0000
0000
0300
,
M1M2
0000
0000
0000
0000
0000
0000
0003
MM12
0000
0000
0000
0000
0000
0000
0003
20M2
0000
0000
0000
0000
0000
0000
3003
2200
0000
0000
0000
0000
0000
0000
3300
,
1100
0000
1000
0100
0000
0000
0M10
0000
0001
0000
0100
0010
0000
0000
0M10
0000
,
0100
0000
0000
0000
0001
0000
1000
0000
0000
0000
0000
0000
M010
0000
0000
0000
1000
0000
0000
0000
0001
0000
0010
0000
02M0
0000
0000
0000
0000
0000
0000
0300
,
1100
0000
0100
1000
0000
0000
M010
0000
0100
0000
0010
0100
0000
0000
0M10
0000
,
1000
0000
0000
0000
0000
0000
0001
0000
0000
0010
0000
0000
0000
0000
0000
0000
0000
0000
001M
0000
0000
0000
0000
0000
0100
0000
0000
0000
0000
0000
1000
0000
0000
0100
0000
0000
M002
0000
0M00
0000
0000
0000
0000
0000
0000
0000
0000
0000
,
0103
0000
1000
0001
0000
0000
M011
0000
0100
0000
1000
0010
0000
0000
1M10
0000
,
0100
0000
0000
0000
0000
0000
0001
0000
0000
1000
0000
0000
0000
0000
0000
0000
0000
0000
M110
0000
0000
0000
0000
0000
1000
0000
0000
0000
0000
0000
0001
0000
0000
0010
0000
0000
200M
0000
00M0
0000
0000
0000
0000
0000
0000
0000
0000
0000
,
3010
0000
0001
1000
0000
0000
101M
0000
1000
0000
0001
0100
0000
0000
011M
0000
,
0100
0000
0000
0000
0000
0000
0010
0000
0000
0001
0000
0000
0000
0000
0000
0000
0000
0000
0M11
0000
0000
0000
0000
0000
0001
0000
0000
0000
0000
0000
0010
0000
0000
0100
0000
0000
00M2
0000
0M00
0000
0000
0000
0000
0000
0000
0000
0000
0000
,
1003
0100
M000
0100
1000
0000
0010
0000
0100
0000
0001
0010
0001
1000
0000
0000
0M00
0010
100M
0010
1000
0000
0001
0010
0001
0000
0100
0010
1000
0000
0000
0000
,
0000
0000
0000
0000
0000
0000
0MM1
0000
0000
0000
0000
0000
M000
0000
0000
0000
0000
0000
0001
0000
0000
0000
0000
0000
0010
0000
0000
0000
0000
0000
0000
0000
0000
0000
0000
0000
0100
0000
0000
0000
0000
0000
1000
0000
0000
0000
0000
0000
0100
0000
0000
0000
0000
0000
0000
0000
0010
0000
0000
0000
0000
0000
0000
0000
0001
0000
0000
0000
0000
0000
0000
0000
1MM1
0000
0000
0000
0000
0000
0000
0000
0000
0000
0000
0000
0000
0000
0000
0000
0000
0000
0000
0000
0000
0000
0000
0000
0000
0000
0000
0000
0000
0000
1000
0000
0000
0000
0000
0000
0010
0000
0000
0000
0000
0000
1000
0000
0000
0000
0000
0000
0001
0000
0000
0000
0000
0000
0000
0000
0000
0000
0000
0000
0100
0000
0000
0000
0000
0000
0001
0000
0000
0000
0000
0000
1000
0000
0000
0000
0000
0000
0000
0000
0100
0000
0000
0000
0000
0000
0000
0000
0010
0000
0000
0000
0000
0000
0000
0000
0011
0000
0000
0000
0000
0000
0000
0000
0000
0000
0000
0000
1100
0000
0000
0000
0000
0000
0000
0000
0000
0000
0000
0000
,
1000
0010
0100
0001
0010
1000
0001
0100
,
200M
0000
0000
0000
0000
0000
02M0
0000
0000
0000
0000
0000
001M
0000
0000
0000
0000
0000
0011
0000
0000
0000
0000
3000
,
1300
0100
0010
0001
1000
0010
0001
0010
,
M2MM
0000
0000
0000
M3M2
0000
0000
0000
2MM3
0000
3001
0000
0100
0000
0010
1000
,
0100
0000
0010
0000
1000
0000
0010
0000
0200
0000
0000
0320
0M00
0000
0031
0000
,
0100
0000
1000
0000
0100
0000
0001
0000
0020
0000
0000
0230
00M0
0000
1300
0000
,
0010
0000
0001
0000
0010
0000
0100
0000
0002
0000
0000
0020
0003
M00M
0000
0000
,
1030
0000
0000
0000
0000
0000
0000
0000
0000
0000
0000
0000
0000
0000
0000
0000
0000
0000
0000
0000
0000
0000
0000
0000
0001
0000
0000
0000
0000
0000
0000
0000
0000
0000
0000
0000
0000
0000
0000
0000
0000
0000
0000
0000
0000
0000
0000
0000
0100
0000
0000
0000
0000
0000
0000
0000
0000
0000
0000
0000
0000
0000
0000
0000
0000
0000
0000
0000
0000
0000
0000
0000
2000
0000
0000
0000
0000
0000
0000
0000
0000
0000
0000
0000
0000
0000
0000
0000
0000
0000
0000
0000
0000
0000
0000
0000
0200
0000
0000
0000
0000
0000
0000
0000
0000
0000
0000
0000
0000
0000
0000
0000
0000
0000
0000
0000
0000
0000
0000
0000
0000
0000
0000
0000
0000
0000
0000
0000
0000
0000
0000
0000
0000
0000
0000
0000
0000
0000
3300
0000
0000
0000
0000
0000
1100
0000
0000
0000
0000
0000
0000
0000
0000
0000
0000
0000
0000
0000
0000
0000
MM00
0000
0000
0000
0000
0000
0000
0000
0000
0000
0000
0000
0000
0000
0000
0000
0000
0000
0000
0000
0000
0000
0000
0000
0000
0000
0000
0000
0000
0000
0000
0000
,
2000
0000
0000
0000
0000
0000
0000
0000
0200
0000
0000
0000
0000
0000
0000
0000
0010
0000
0000
0000
0000
0000
0000
3000
1300
0000
0000
0000
0100
0000
0000
0000
,
0010
0000
0001
1000
0001
0000
1000
0000
0M20
0000
0000
0000
0002
0030
00M0
0000
,
0020
0003
000M
0000
M200
0000
0000
0000
0001
0000
0000
0000
0330
0000
0010
0000
,
1000
0000
0001
0010
0001
0000
1000
0000
2020
0000
0000
3000
M130
0000
0001
0000
,
1MMM
0010
0100
0001
0010
0100
0001
0100
,
MM1M
0100
1000
0010
0001
0010
1000
0001
,
2MMM
0000
0000
0000
0200
3000
0310
0001
0010
0000
0100
1000
0100
0000
1000
0000
,
1M2M
0000
0000
0000
M23M
0000
0310
1000
0001
0MM0
0001
1000
0100
0000
0010
0000
,
MMM1
0010
1000
0001
0100
1000
0010
0100
,
1MMM
0001
0010
0100
0001
1000
0001
0010
,
02M0
0000
0000
0000
1300
0001
1000
0010
1000
0000
0001
0100
0001
0000
1000
0000
,
00M1
0000
0000
0000
0000
0000
0000
0000
0000
0000
0000
0000
0000
0000
0000
0000
0001
0000
0000
0000
0000
0000
0000
0000
0000
0000
0000
0000
0000
0000
0000
0000
0001
0000
0000
0000
0000
0000
0000
0000
0000
0000
0000
0000
0000
0000
0000
0000
1M00
0000
0000
0000
0000
0000
0000
0000
0000
0000
0000
0000
0000
0000
0000
0000
1000
0000
0000
0000
0000
0000
0000
0000
0000
0000
0000
0000
0000
0000
0000
0000
1000
0000
0000
0000
0000
0000
0000
0000
0000
0000
0000
0000
0000
0000
0000
0000
001M
0000
0000
0000
0000
0000
0000
0000
0000
0000
0000
0000
0000
0000
0000
0000
0000
0000
0000
0000
0000
0000
0000
0000
0100
0000
0000
0000
0000
0000
0000
0000
0000
0000
0000
0000
0000
0000
0000
0000
0000
0000
0000
0000
0000
0000
0000
0000
2MM2
0000
0000
0000
0000
0000
0000
0000
0000
0000
0000
0000
0000
0000
0000
0000
0000
0000
0000
0000
0000
0000
0000
0000
0000
0000
0000
0000
0000
0000
0000
0000
0000
0000
0000
0000
0000
0000
0000
0000
0000
0000
3003
0000
0000
0000
0000
0000
,
1010
0000
1000
0010
0000
0100
0010
0000
M11M
0000
0100
0001
0000
0001
0010
0000
,
M11M
0000
0000
0000
0100
0000
0001
0000
0000
0000
0100
0000
0010
0000
0000
0000
MM11
0000
0000
0000
1000
0000
0001
0000
200M
0000
0000
0000
0000
0000
0000
3000
,
1M1M
0000
0100
0001
0000
1000
0010
0000
1M1M
0000
0100
0001
0000
0001
0010
0000
,
M11M
0000
0000
0000
0100
0000
1000
0000
0000
0000
1000
0000
0010
0000
0000
0000
M1M1
0000
0000
0000
0010
0000
1000
0000
M002
0000
0000
0000
0000
0000
0000
0003
,
MM11
0000
0010
0100
0000
0100
0010
0000
MM11
0000
0001
1000
0000
1000
0010
0000
,
M1M1
0000
0100
0010
0000
0100
0010
0000
1M1M
0000
0010
1000
M020
0000
0000
0000
,
1030
0010
0100
0001
0000
1000
0010
0000
1000
0100
0010
0001
0000
0001
0010
0000
,
0100
1000
0001
0100
0000
0100
0010
0000
1000
0001
0100
0010
1001
0000
01M0
0000
,
2MM2
0000
0000
0000
0000
0000
0000
0000
3003
M00M
0000
0000
0000
0000
0000
0000
0000
0000
0000
0000
0000
0000
0000
0000
0000
0000
0000
0000
0000
0000
0000
0000
;
